Re: [LAU] screencast using jack

Previous message: [thread] [date] [author]
Next message: [thread] [date] [author]
To: <len@...>
Cc: <linux-audio-user@...>
Date: Tuesday, March 19, 2013 - 7:08 am

Il 19/03/2013 02:25, Len Ovens ha scritto:

Your guess is probably right.
The audio is ok, while the video is a bit too fast.

Yes, they play back at the listed times.
Here's what ffmpeg say:

Input #0, matroska,webm, from 'screencast_video_20130318-23h53.mkv':
Metadata:
ENCODER : Lavf54.29.104
Duration: 00:05:31.00, start: 0.000000, bitrate: 426 kb/s
Stream #0:0: Video: h264 (High 4:4:4 Predictive), yuv444p,
1280x800, SAR 1:1 DAR 8:5, 30 fps, 30 tbr, 1k tbn, 60 tbc (default)

Input #0, wav, from 'screencast_audio_20130318-23h53.wav':
Duration: 00:09:21.79, bitrate: 2304 kb/s
Stream #0:0: Audio: pcm_s24le ([1][0][0][0] / 0x0001), 48000 Hz,
stereo, s32, 2304 kb/s

But I don't understand... I've recorded at 30 fps and I'm watching at 30
fps. Why it's playing faster than the recording?

--
Federico
_______________________________________________
Linux-audio-user mailing list
Linux-audio-user@lists.linuxaudio.org
http://lists.linuxaudio.org/listinfo/linux-audio-user

Previous message: [thread] [date] [author]
Next message: [thread] [date] [author]

Messages in current thread:
[LAU] screencast using jack, Federico Bruni, (Sat Mar 16, 10:11 pm)
Re: [LAU] screencast using jack, Federico Bruni, (Sat Mar 16, 10:29 pm)
Re: [LAU] screencast using jack, David Adler, (Sat Mar 16, 11:27 pm)
Re: [LAU] screencast using jack, Federico Bruni, (Sun Mar 17, 9:12 pm)
Re: [LAU] screencast using jack, David Adler, (Sun Mar 17, 11:10 pm)
Re: [LAU] screencast using jack, Federico Bruni, (Tue Mar 19, 12:42 am)
Re: [LAU] screencast using jack, Len Ovens, (Tue Mar 19, 1:25 am)
Re: [LAU] screencast using jack, Federico Bruni, (Tue Mar 19, 7:08 am)
Re: [LAU] screencast using jack, Len Ovens, (Tue Mar 19, 1:43 pm)
Re: [LAU] screencast using jack, Federico Bruni, (Tue Mar 19, 10:49 pm)
Re: [LAU] screencast using jack, Patrick Shirkey, (Tue Mar 19, 9:47 am)
Re: [LAU] screencast using jack, Federico Bruni, (Tue Mar 19, 10:48 pm)
Re: [LAU] screencast using jack, Federico Bruni, (Mon Mar 18, 9:53 pm)
Re: [LAU] screencast using jack, Patrick Shirkey, (Tue Mar 19, 12:25 am)
Re: [LAU] screencast using jack, Federico Bruni, (Tue Mar 19, 12:37 am)
Re: [LAU] screencast using jack, Federico Bruni, (Sun Mar 17, 10:29 am)
Re: [LAU] screencast using jack, Jannis Achstetter, (Sat Mar 16, 10:23 pm)
Re: [LAU] screencast using jack, Federico Bruni, (Sat Mar 16, 11:14 pm)
Re: [LAU] screencast using jack, Jannis Achstetter, (Sun Mar 17, 8:26 am)
Re: [LAU] screencast using jack, Jannis Achstetter, (Sun Mar 17, 8:30 am)
Re: [LAU] screencast using jack, Federico Bruni, (Sun Mar 17, 9:07 am)
Re: [LAU] screencast using jack, Federico Bruni, (Sat Mar 16, 11:01 pm)